Along.With.The.Gods.The.Two.Worlds.[Singwa.Hamgge].2017.1080p.HDR...

  • Category Movies
  • Type HD
  • Language Korean
  • Total size 2.6 GB
  • Uploaded By noriegaRJ
  • Downloads 958
  • Last checked 7 months ago
  • Date uploaded 10 months ago
  • Seeders 22
  • Leechers 4

Infohash : B4AFC1F84BA66F9871794A2945B86ED7515B9117

Release: Along.With.The.Gods.The.Two.Worlds.[Singwa.Hamgge].2017.1080p.HDRip.x264.AAC.HORiZON-ArtSubs



IMDB: www.imdb.com/title/tt7160070/

Subtitle: English


Plot: After a heroic death, a firefighter navigates the afterlife with the help of three guides.


General
Complete name : Along.With.The.Gods.The.Two.Worlds.[Singwa.Hamgge].2017.1080p.HDRip.x264.AAC.HORiZON-ArtSubs.mkv
Format : Matroska
Format version : Version 4 / Version 2
File size : 2.56 GiB
Duration : 2 h 19 min
Overall bit rate : 2 621 kb/s
Encoded date : UTC 2018-03-09 15:33:32
Writing application : mkvmerge v20.0.0 ('I Am The Sun') 64-bit
Writing library : libebml v1.3.5 + libmatroska v1.4.8

Video
ID : 1
Format : AVC
Format/Info : Advanced Video Codec
Format profile : [email protected]
Format settings : CABAC / 4 Ref Frames
Format settings, CABAC : Yes
Format settings, ReFrames : 4 frames
Codec ID : V_MPEG4/ISO/AVC
Duration : 2 h 19 min
Bit rate : 2 300 kb/s
Width : 1 920 pixels
Height : 800 pixels
Display aspect ratio : 2.40:1
Frame rate mode : Constant
Frame rate : 23.976 (24000/1001) FPS
Color space : YUV
Chroma subsampling : 4:2:0
Bit depth : 8 bits
Scan type : Progressive
Bits/(Pixel*Frame) : 0.062
Stream size : 2.24 GiB (88%)
Writing library : x264 core 155 r2893 b00bcaf
Encoding settings : cabac=1 / ref=3 / deblock=1:-1:-1 / analyse=0x3:0x113 / me=hex / subme=7 / psy=1 / psy_rd=1.00:0.15 / mixed_ref=1 / me_range=16 / chroma_me=1 / trellis=1 / 8x8dct=1 / cqm=0 / deadzone=21,11 / fast_pskip=1 / chroma_qp_offset=-3 / threads=3 / lookahead_threads=1 / sliced_threads=0 / nr=0 / decimate=1 / interlaced=0 / bluray_compat=0 / constrained_intra=0 / bframes=3 / b_pyramid=2 / b_adapt=1 / b_bias=0 / direct=1 / weightb=1 / open_gop=0 / weightp=2 / keyint=240 / keyint_min=24 / scenecut=40 / intra_refresh=0 / rc_lookahead=40 / rc=2pass / mbtree=1 / bitrate=2300 / ratetol=1.0 / qcomp=0.60 / qpmin=0 / qpmax=69 / qpstep=4 / cplxblur=20.0 / qblur=0.5 / vbv_maxrate=62500 / vbv_bufsize=78125 / nal_hrd=none / filler=0 / ip_ratio=1.40 / aq=1:1.00
Default : Yes
Forced : No
Color range : Limited
Color primaries : BT.709
Transfer characteristics : BT.709
Matrix coefficients : BT.709

Audio
ID : 2
Format : AAC
Format/Info : Advanced Audio Codec
Format profile : LC
Codec ID : A_AAC-2
Duration : 2 h 19 min
Bit rate : 320 kb/s
Channel(s) : 2 channels
Channel positions : Front: L R
Sampling rate : 48.0 kHz
Frame rate : 46.875 FPS (1024 SPF)
Compression mode : Lossy
Delay relative to video : 10 ms
Stream size : 320 MiB (12%)
Title : Stereo
Language : Korean
Default : Yes
Forced : No

Text
ID : 3
Format : UTF-8
Codec ID : S_TEXT/UTF8
Codec ID/Info : UTF-8 Plain Text
Duration : 2 h 13 min
Bit rate : 42 b/s
Count of elements : 1502
Stream size : 41.7 KiB (0%)
Language : English
Default : Yes
Forced : No


SCREENSHOTS:





Files:

  • Along.With.The.Gods.The.Two.Worlds.[Singwa.Hamgge].2017.1080p.HDRip.x264.AAC.HORiZON-ArtSubs.mkv (2.6 GB)

There are currently no comments. Feel free to leave one :)

Code:

  • udp://tracker.coppersurfer.tk:6969/announce
  • udp://tracker.leechers-paradise.org:6969/announce
  • udp://tracker.opentrackr.org:1337/announce
SitemapBaixar toque para celular | Hot Wheels Battle Force 5 | 4 years ago British Pornstar Loves Big Dick Anal